Дивеевская обитель (Геннадий Чеботарёв)

Скачать

Дивеевская обитель (Геннадий Чеботарёв)

Дивеевская обитель

Год выпуска: 2007

Страна: Россия

Жанр: Православные святыни

Продолжительность: 00:41:43

Перевод: Не требуется

Русские субтитры: нет

Режиссер: Г. Чеботарёв

Описание: Святая Дивеевская земля, избранна Самой Царицей Небесной в Свой последний Четвёртый Удел на земле. Фильм предлагает краткую историю Серафимо-Дивеевского монастыря, жизнеописание старца Серафима и преподобных Александры, Марфы, Параскевы и Марии Дивеевских. Вы увидите находящиеся там святыни: иконы, личные вещи преп. Серафима, святую Канавку Божией Матери, монастырские храмы и постройки, целебные источники. Показаны церковные праздники, с особыми традициями, сложившимися в обители. По всей России и по всему миру рассеяны люди, которым дорога Дивеевской обитель, так как "счастлив всяк, кто у убогого Серафима в Дивееве пробудет... от утра и до утра, ибо Матерь Божия, Царица Небесная, каждые сутки посещает Дивеево". Желаем вам подробнее познакомиться с Обителью и полюбить всем сердцем место, взятое под покров Пресвятой Богородицей.

Доп. информация: Рип сделан с этого исходника:

Сэмпл: http://multi-up.com/820570

качество: DVDRip

формат: AVI

видеокодек: XviD

аудиокодек: MP3

Видео: 1663 Кбит/сек, 720*544 (4:3), в 25,000 кадров/сек, MPEG-4 Visual (XviD) (Сжатый битовый поток) (Advanced Simple@L5) (BVOP1)

Аудио: Русский, 160 Кбит/сек, 48,0 КГц, 2 канала, MPEG Audio (MP3) (Version 1) (Layer 3) (Joint stereo)

MediaInfo

Формат : AVI

Формат/Информация : Audio Video Interleave

Размер файла : 548 Мбайт

Продолжительность : 41 м.

Общий поток : 1836 Кбит/сек

Программа кодирования : MEncoder Sherpya-SVN-r29355-4.5.0

Библиотека кодирования : MPlayer

Видео

Идентификатор : 0

Формат : MPEG-4 Visual

Профиль формата : Advanced Simple@L5

Параметр BVOP формата : 1

Параметр QPel формата : Нет

Параметр GMC формата : Без точки перехода

Параметр матрицы формата : Default (H.263)

Режим смешивания : Сжатый битовый поток

Идентификатор кодека : XVID

Идентификатор кодека/Подсказка : XviD

Продолжительность : 41 м.

Битрейт : 1663 Кбит/сек

Ширина : 720 пикселей

Высота : 544 пикселя

Соотношение сторон : 4:3

Частота кадров : 25,000 кадров/сек

Цветовое пространство : YUV

Субдискретизация насыщенности : 4:2:0

Битовая глубина : 8 бит

Тип развёртки : Прогрессивная

Метод сжатия : С потерями

Бит/(Пиксели*Кадры) : 0.170

Размер потока : 496 Мбайт (91%)

Библиотека кодирования : XviD 1.2.1 (UTC 2008-12-04)

Аудио

Идентификатор : 1

Формат : MPEG Audio

Версия формата : Version 1

Профиль формата : Layer 3

Режим : Joint stereo

Идентификатор кодека : 55

Идентификатор кодека/Подсказка : MP3

Продолжительность : 41 м.

Вид битрейта : Постоянный

Битрейт : 160 Кбит/сек

Каналы : 2 канала

Частота : 48,0 КГц

Метод сжатия : С потерями

Задержка видео : 40 мс.

Размер потока : 47,7 Мбайт (9%)

Выравнивание : Соединение по промежуткам

Продолжительность промежутка : 24 мс. (0,60 видеокадр)

Время предзагрузки промежутка : 504 мс.

Библиотека кодирования : LAME3.98

Скачать