Благодатная пристань (Лариса Шапран)

Скачать

Благодатная пристань (Лариса Шапран)

Благодатная пристань

Год выпуска: 2012

Страна: Россия

Жанр: Православные святыни

Продолжительность: 01:26:02

Перевод: Не требуется

Русские субтитры: нет

Режиссер: Л. Шапран

Описание: Этот фильм рассказывает о сегодняшнем дне одного из наиболее почитаемых в России монастырей. Святая обитель, основанная преподобным Тихоном Калужским, вот уже более пяти веков, как мужественный воин, служит Богу и людям. Фильм посвящен 20-летию открытия Калужской Свято-Тихоновой пустыни.

Доп. информация: Рип сделан с этого исходника:

Сэмпл: http://multi-up.com/873734

Качество: DVDRip

Формат: AVI

Видео: 1492 Кбит/сек, 720*544 (4:3), в 25,000 кадров/сек, MPEG-4 Visual (XviD) (Advanced Simple@L5) (BVOP2)

Аудио: Русский, 128 Кбит/сек, 48,0 КГц, 2 канала, MPEG Audio (MP3) (Version 1) (Layer 3)

MediaInfo

Формат : AVI

Формат/Информация : Audio Video Interleave

Размер файла : 1005 Мбайт

Продолжительность : 1 ч. 26 м.

Общий поток : 1633 Кбит/сек

Видео

Идентификатор : 0

Формат : MPEG-4 Visual

Профиль формата : Advanced Simple@L5

Параметр BVOP формата : 2

Параметр QPel формата : Нет

Параметр GMC формата : Без точки перехода

Параметр матрицы формата : Default (MPEG)

Идентификатор кодека : XVID

Идентификатор кодека/Подсказка : XviD

Продолжительность : 1 ч. 26 м.

Битрейт : 1492 Кбит/сек

Ширина : 720 пикселей

Высота : 544 пикселя

Соотношение сторон : 4:3

Частота кадров : 25,000 кадров/сек

Цветовое пространство : YUV

Субдискретизация насыщенности : 4:2:0

Битовая глубина : 8 бит

Тип развёртки : Прогрессивная

Метод сжатия : С потерями

Бит/(Пиксели*Кадры) : 0.152

Размер потока : 919 Мбайт (91%)

Библиотека кодирования : XviD 1.2.1 (UTC 2008-12-04)

Аудио

Идентификатор : 1

Формат : MPEG Audio

Версия формата : Version 1

Профиль формата : Layer 3

Идентификатор кодека : 55

Идентификатор кодека/Подсказка : MP3

Продолжительность : 1 ч. 25 м.

Продолжительность оригинала : 1 ч. 25 м.

Вид битрейта : Постоянный

Битрейт : 128 Кбит/сек

Каналы : 2 канала

Частота : 48,0 КГц

Метод сжатия : С потерями

Размер потока : 78,7 Мбайт (8%)

Выравнивание : Разделение по промежуткам

Продолжительность промежутка : 24 мс. (0,60 видеокадр)

Скачать