Акафист преподобному Савве Сторожевскому. Приют преподобного Саввы (Сергей Ломкин)

Скачать

Акафист преподобному Савве Сторожевскому. Приют преподобного Саввы (Сергей Ломкин)

Акафист преподобному Савве Сторожевскому. Приют преподобного Саввы

Год выпуска: 2007

Страна: Россия

Жанр: Православно-познавательный

Продолжительность: 00:52:49 + 01:17:43

Перевод: Не требуется

Русские субтитры: нет

Режиссер: С. Ломкин

Описание: В течение первого фильма читается акафист преподобному Савве Сторожевскому. Второй фильм посвящен детскому приюту при обители.

Сэмпл: http://www.sendspace.com/file/9rgqdo

Качество: DVD5

Формат: DVD video

Видео: MPEG Video, PAL 720*576 (4:3), VBR ~4100 Кбит/сек, 25,000 кадров/сек

Аудио: Русский, MPEG Audio, 2 канала, 192 Кбит/сек, 48,0 КГц

DVDInfo

Title: Акафист преподобному Савве Сторожевскому. Приют преподобного Саввы

Size: 4.00 Gb ( 4 195 704,00 KBytes ) - DVD-5

Enabled regions: 1, 2, 3, 4, 5, 6, 7, 8

VTS_01 :

Play Length: 00:52:49

Video: PAL 4:3 (720x576) VBR

Audio:

Russian (MPEG1, 2 ch)

VTS_02 :

Play Length: 01:17:43

Video: PAL 4:3 (720x576) VBR

Audio:

Russian (MPEG1, 2 ch)

* Menus Information *

VIDEO_TS Menu

Video:

PAL 4:3 (720x576) VBR

English Language Unit :

Title Menu

VTS_01 Menu

Video:

PAL 4:3 (720x576) VBR

Audio:

Not specified (Dolby AC3, 2 ch)

English Language Unit :

Root Menu

VTS_02 Menu

Video:

PAL 4:3 (720x576) VBR

English Language Unit :

Root Menu

MediaInfo

Общее

Полное имя : L:\Monar.ru\Видео\Документальные фильмы\Познавательные фильмы\Акафист преподобному Савве Сторожевскому. Приют преподобного Саввы\VIDEO_TS\VIDEO_TS.BUP

Формат : DVD Video

Профиль формата : Menu

Размер файла : 14,0 Кбайт

Режим общего битрейта : Переменный

Видео

Идентификатор : 224 (0xE0)

Формат : MPEG Video

Версия формата : Version 2

Вид битрейта : Переменный

Ширина : 720 пикселей

Высота : 576 пикселей

Соотношение сторон : 4:3

Частота кадров : 25,000 кадров/сек

Стандарт вещания : PAL

Метод сжатия : С потерями

Текст

Формат : RLE

Формат/Информация : Run-length encoding

Битовая глубина : 2 бит

Общее

Полное имя : L:\Monar.ru\Видео\Документальные фильмы\Познавательные фильмы\Акафист преподобному Савве Сторожевскому. Приют преподобного Саввы\VIDEO_TS\VIDEO_TS.IFO

Формат : DVD Video

Профиль формата : Menu

Размер файла : 14,0 Кбайт

Режим общего битрейта : Переменный

Видео

Идентификатор : 224 (0xE0)

Формат : MPEG Video

Версия формата : Version 2

Вид битрейта : Переменный

Ширина : 720 пикселей

Высота : 576 пикселей

Соотношение сторон : 4:3

Частота кадров : 25,000 кадров/сек

Стандарт вещания : PAL

Метод сжатия : С потерями

Текст

Формат : RLE

Формат/Информация : Run-length encoding

Битовая глубина : 2 бит

Общее

Полное имя : L:\Monar.ru\Видео\Документальные фильмы\Познавательные фильмы\Акафист преподобному Савве Сторожевскому. Приют преподобного Саввы\VIDEO_TS\VIDEO_TS.VOB

Формат : MPEG-PS

Размер файла : 10,0 Кбайт

Продолжительность : 40 мс.

Общий поток : 2048 Кбит/сек

Видео

Идентификатор : 224 (0xE0)

Формат : MPEG Video

Версия формата : Version 2

Профиль формата : Main@Main

Параметр BVOP формата : Нет

Параметр матрицы формата : Выборочная

Продолжительность : 40 мс.

Максимальный битрейт : 9000 Кбит/сек

Ширина : 720 пикселей

Высота : 576 пикселей

Соотношение сторон : 4:3

Частота кадров : 25,000 кадров/сек

Стандарт вещания : PAL

Цветовое пространство : YUV

Субдискретизация насыщенности : 4:2:0

Битовая глубина : 8 бит

Тип развёртки : Прогрессивная

Порядок развёртки : Верхнее поле первое

Метод сжатия : С потерями

Временной код первого кадра : 00:00:00:00

Оригинал временного кода : Group of pictures header

Основные цвета : BT.601 NTSC

Характеристики трансфера : BT.601

Коэффициенты матрицы : BT.601

Меню

Общее

Полное имя : L:\Monar.ru\Видео\Документальные фильмы\Познавательные фильмы\Акафист преподобному Савве Сторожевскому. Приют преподобного Саввы\VIDEO_TS\VTS_01_0.BUP

Формат : DVD Video

Профиль формата : Program

Размер файла : 46,0 Кбайт

Продолжительность : 52 м.

Режим общего битрейта : Переменный

Общий поток : 119 бит/сек

Видео

Идентификатор : 224 (0xE0)

Формат : MPEG Video

Версия формата : Version 2

Продолжительность : 52 м.

Вид битрейта : Переменный

Ширина : 720 пикселей

Высота : 576 пикселей

Соотношение сторон : 4:3

Частота кадров : 25,000 кадров/сек

Стандарт вещания : PAL

Метод сжатия : С потерями

Аудио

Идентификатор : 0 (0x0)

Формат : MPEG Audio

Профиль формата : Version 1

Продолжительность : 52 м.

Каналы : 2 канала

Частота : 48,0 КГц

Метод сжатия : С потерями

Язык : Russian

Меню

Продолжительность : 52 м.

00:00:00.000 : Chapter 1

List (Audio) : 0

Общее

Полное имя : L:\Monar.ru\Видео\Документальные фильмы\Познавательные фильмы\Акафист преподобному Савве Сторожевскому. Приют преподобного Саввы\VIDEO_TS\VTS_01_0.IFO

Формат : DVD Video

Профиль формата : Program

Размер файла : 46,0 Кбайт

Продолжительность : 52 м.

Режим общего битрейта : Переменный

Общий поток : 119 бит/сек

Видео

Идентификатор : 224 (0xE0)

Формат : MPEG Video

Версия формата : Version 2

Продолжительность : 52 м.

Вид битрейта : Переменный

Ширина : 720 пикселей

Высота : 576 пикселей

Соотношение сторон : 4:3

Частота кадров : 25,000 кадров/сек

Стандарт вещания : PAL

Метод сжатия : С потерями

Аудио

Идентификатор : 0 (0x0)

Формат : MPEG Audio

Профиль формата : Version 1

Продолжительность : 52 м.

Каналы : 2 канала

Частота : 48,0 КГц

Метод сжатия : С потерями

Язык : Russian

Меню

Продолжительность : 52 м.

00:00:00.000 : Chapter 1

List (Audio) : 0

Общее

Полное имя : L:\Monar.ru\Видео\Документальные фильмы\Познавательные фильмы\Акафист преподобному Савве Сторожевскому. Приют преподобного Саввы\VIDEO_TS\VTS_01_0.VOB

Формат : MPEG-PS

Размер файла : 1,70 Мбайт

Продолжительность : 59 с.

Общий поток : 238 Кбит/сек

Видео

Идентификатор : 224 (0xE0)

Формат : MPEG Video

Версия формата : Version 2

Профиль формата : Main@Main

Параметр BVOP формата : Нет

Параметр матрицы формата : Выборочная

Продолжительность : 155 мс.

Битрейт : 41,2 Кбит/сек

Максимальный битрейт : 9000 Кбит/сек

Ширина : 720 пикселей

Высота : 576 пикселей

Соотношение сторон : 4:3

Частота кадров : 25,000 кадров/сек

Стандарт вещания : PAL

Цветовое пространство : YUV

Субдискретизация насыщенности : 4:2:0

Битовая глубина : 8 бит

Тип развёртки : Прогрессивная

Порядок развёртки : Верхнее поле первое

Метод сжатия : С потерями

Бит/(Пиксели*Кадры) : 0.004

Размер потока : 825 байт (0%)

Основные цвета : BT.601 NTSC

Характеристики трансфера : BT.601

Коэффициенты матрицы : BT.601

Аудио

Идентификатор : 189 (0xBD)-128 (0x80)

Формат : AC-3

Формат/Информация : Audio Coding 3

Расширение режима : CM (complete main)

Параметр Endianness формата : Big

Режим смешивания : DVD-Video

Продолжительность : 59 с.

Вид битрейта : Постоянный

Битрейт : 192 Кбит/сек

Каналы : 2 канала

Расположение каналов : Front: L R

Частота : 48,0 КГц

Битовая глубина : 16 бит

Метод сжатия : С потерями

Задержка видео : 115 мс.

Размер потока : 1,37 Мбайт (81%)

Текст

Идентификатор : 189 (0xBD)-32 (0x20)

Формат : RLE

Формат/Информация : Run-length encoding

Режим смешивания : DVD-Video

Задержка видео : 115 мс.

Меню

Общее

Полное имя : L:\Monar.ru\Видео\Документальные фильмы\Познавательные фильмы\Акафист преподобному Савве Сторожевскому. Приют преподобного Саввы\VIDEO_TS\VTS_01_1.VOB

Формат : MPEG-PS

Размер файла : 1024 Мбайт

Продолжительность : 32 м.

Общий поток : 4386 Кбит/сек

Библиотека кодирования : encoded by TMPGEnc 3.0 XPress Version. 3.0.4.24

Видео

Идентификатор : 224 (0xE0)

Формат : MPEG Video

Версия формата : Version 2

Профиль формата : Main@Main

Параметр BVOP формата : Да

Параметр матрицы формата : Выборочная

Параметр GOP формата : M=3, N=13

Продолжительность : 32 м.

Битрейт : 4100 Кбит/сек

Ширина : 720 пикселей

Высота : 576 пикселей

Соотношение сторон : 4:3

Частота кадров : 25,000 кадров/сек

Стандарт вещания : PAL

Цветовое пространство : YUV

Субдискретизация насыщенности : 4:2:0

Битовая глубина : 8 бит

Тип развёртки : Чересстрочная

Порядок развёртки : Верхнее поле первое

Метод сжатия : С потерями

Бит/(Пиксели*Кадры) : 0.395

Временной код первого кадра : 00:00:00:00

Оригинал временного кода : Group of pictures header

Размер потока : 959 Мбайт (94%)

Библиотека кодирования : TMPGEnc 3.0 XPress Version. 3.0.4.24

Основные цвета : BT.601 PAL

Характеристики трансфера : BT.470 System B, BT.470 System G

Коэффициенты матрицы : FCC 73.682

Аудио

Идентификатор : 192 (0xC0)

Формат : MPEG Audio

Версия формата : Version 1

Профиль формата : Layer 2

Продолжительность : 32 м.

Вид битрейта : Постоянный

Битрейт : 192 Кбит/сек

Каналы : 2 канала

Частота : 48,0 КГц

Метод сжатия : С потерями

Размер потока : 44,8 Мбайт (4%)

Меню

Общее

Полное имя : L:\Monar.ru\Видео\Документальные фильмы\Познавательные фильмы\Акафист преподобному Савве Сторожевскому. Приют преподобного Саввы\VIDEO_TS\VTS_01_2.VOB

Формат : MPEG-PS

Размер файла : 633 Мбайт

Продолжительность : 20 м.

Общий поток : 4386 Кбит/сек

Видео

Идентификатор : 224 (0xE0)

Формат : MPEG Video

Версия формата : Version 2

Профиль формата : Main@Main

Параметр BVOP формата : Да

Параметр матрицы формата : Выборочная

Параметр GOP формата : M=3, N=13

Продолжительность : 20 м.

Битрейт : 4100 Кбит/сек

Ширина : 720 пикселей

Высота : 576 пикселей

Соотношение сторон : 4:3

Частота кадров : 25,000 кадров/сек

Стандарт вещания : PAL

Цветовое пространство : YUV

Субдискретизация насыщенности : 4:2:0

Битовая глубина : 8 бит

Тип развёртки : Чересстрочная

Порядок развёртки : Верхнее поле первое

Метод сжатия : С потерями

Бит/(Пиксели*Кадры) : 0.395

Временной код первого кадра : 00:32:38:07

Оригинал временного кода : Group of pictures header

Размер потока : 593 Мбайт (94%)

Основные цвета : BT.601 PAL

Характеристики трансфера : BT.470 System B, BT.470 System G

Коэффициенты матрицы : FCC 73.682

Аудио

Идентификатор : 192 (0xC0)

Формат : MPEG Audio

Версия формата : Version 1

Профиль формата : Layer 2

Продолжительность : 20 м.

Вид битрейта : Постоянный

Битрейт : 192 Кбит/сек

Каналы : 2 канала

Частота : 48,0 КГц

Метод сжатия : С потерями

Задержка видео : -144 мс.

Размер потока : 27,7 Мбайт (4%)

Меню

Общее

Полное имя : L:\Monar.ru\Видео\Документальные фильмы\Познавательные фильмы\Акафист преподобному Савве Сторожевскому. Приют преподобного Саввы\VIDEO_TS\VTS_02_0.BUP

Формат : DVD Video

Профиль формата : Program

Размер файла : 58,0 Кбайт

Продолжительность : 1 ч. 17 м.

Режим общего битрейта : Переменный

Общий поток : 102 бит/сек

Видео

Идентификатор : 224 (0xE0)

Формат : MPEG Video

Версия формата : Version 2

Продолжительность : 1 ч. 17 м.

Вид битрейта : Переменный

Ширина : 720 пикселей

Высота : 576 пикселей

Соотношение сторон : 4:3

Частота кадров : 25,000 кадров/сек

Стандарт вещания : PAL

Метод сжатия : С потерями

Аудио

Идентификатор : 0 (0x0)

Формат : MPEG Audio

Профиль формата : Version 1

Продолжительность : 1 ч. 17 м.

Каналы : 2 канала

Частота : 48,0 КГц

Метод сжатия : С потерями

Язык : Russian

Меню

Продолжительность : 1 ч. 17 м.

00:00:00.000 : Chapter 1

List (Audio) : 0

Общее

Полное имя : L:\Monar.ru\Видео\Документальные фильмы\Познавательные фильмы\Акафист преподобному Савве Сторожевскому. Приют преподобного Саввы\VIDEO_TS\VTS_02_0.IFO

Формат : DVD Video

Профиль формата : Program

Размер файла : 58,0 Кбайт

Продолжительность : 1 ч. 17 м.

Режим общего битрейта : Переменный

Общий поток : 102 бит/сек

Видео

Идентификатор : 224 (0xE0)

Формат : MPEG Video

Версия формата : Version 2

Продолжительность : 1 ч. 17 м.

Вид битрейта : Переменный

Ширина : 720 пикселей

Высота : 576 пикселей

Соотношение сторон : 4:3

Частота кадров : 25,000 кадров/сек

Стандарт вещания : PAL

Метод сжатия : С потерями

Аудио

Идентификатор : 0 (0x0)

Формат : MPEG Audio

Профиль формата : Version 1

Продолжительность : 1 ч. 17 м.

Каналы : 2 канала

Частота : 48,0 КГц

Метод сжатия : С потерями

Язык : Russian

Меню

Продолжительность : 1 ч. 17 м.

00:00:00.000 : Chapter 1

List (Audio) : 0

Общее

Полное имя : L:\Monar.ru\Видео\Документальные фильмы\Познавательные фильмы\Акафист преподобному Савве Сторожевскому. Приют преподобного Саввы\VIDEO_TS\VTS_02_0.VOB

Формат : MPEG-PS

Размер файла : 10,0 Кбайт

Продолжительность : 40 мс.

Общий поток : 2048 Кбит/сек

Видео

Идентификатор : 224 (0xE0)

Формат : MPEG Video

Версия формата : Version 2

Профиль формата : Main@Main

Параметр BVOP формата : Нет

Параметр матрицы формата : Выборочная

Продолжительность : 40 мс.

Максимальный битрейт : 9000 Кбит/сек

Ширина : 720 пикселей

Высота : 576 пикселей

Соотношение сторон : 4:3

Частота кадров : 25,000 кадров/сек

Стандарт вещания : PAL

Цветовое пространство : YUV

Субдискретизация насыщенности : 4:2:0

Битовая глубина : 8 бит

Тип развёртки : Прогрессивная

Порядок развёртки : Верхнее поле первое

Метод сжатия : С потерями

Временной код первого кадра : 00:00:00:00

Оригинал временного кода : Group of pictures header

Основные цвета : BT.601 NTSC

Характеристики трансфера : BT.601

Коэффициенты матрицы : BT.601

Меню

Общее

Полное имя : L:\Monar.ru\Видео\Документальные фильмы\Познавательные фильмы\Акафист преподобному Савве Сторожевскому. Приют преподобного Саввы\VIDEO_TS\VTS_02_1.VOB

Формат : MPEG-PS

Размер файла : 1024 Мбайт

Продолжительность : 32 м.

Общий поток : 4386 Кбит/сек

Библиотека кодирования : encoded by TMPGEnc 3.0 XPress Version. 3.0.4.24

Видео

Идентификатор : 224 (0xE0)

Формат : MPEG Video

Версия формата : Version 2

Профиль формата : Main@Main

Параметр BVOP формата : Да

Параметр матрицы формата : Выборочная

Параметр GOP формата : M=3, N=13

Продолжительность : 32 м.

Битрейт : 4100 Кбит/сек

Ширина : 720 пикселей

Высота : 576 пикселей

Соотношение сторон : 4:3

Частота кадров : 25,000 кадров/сек

Стандарт вещания : PAL

Цветовое пространство : YUV

Субдискретизация насыщенности : 4:2:0

Битовая глубина : 8 бит

Тип развёртки : Чересстрочная

Порядок развёртки : Верхнее поле первое

Метод сжатия : С потерями

Бит/(Пиксели*Кадры) : 0.395

Временной код первого кадра : 00:00:00:00

Оригинал временного кода : Group of pictures header

Размер потока : 959 Мбайт (94%)

Библиотека кодирования : TMPGEnc 3.0 XPress Version. 3.0.4.24

Основные цвета : BT.601 PAL

Характеристики трансфера : BT.470 System B, BT.470 System G

Коэффициенты матрицы : FCC 73.682

Аудио

Идентификатор : 192 (0xC0)

Формат : MPEG Audio

Версия формата : Version 1

Профиль формата : Layer 2

Продолжительность : 32 м.

Вид битрейта : Постоянный

Битрейт : 192 Кбит/сек

Каналы : 2 канала

Частота : 48,0 КГц

Метод сжатия : С потерями

Размер потока : 44,8 Мбайт (4%)

Меню

Общее

Полное имя : L:\Monar.ru\Видео\Документальные фильмы\Познавательные фильмы\Акафист преподобному Савве Сторожевскому. Приют преподобного Саввы\VIDEO_TS\VTS_02_2.VOB

Формат : MPEG-PS

Размер файла : 1024 Мбайт

Продолжительность : 32 м.

Общий поток : 4386 Кбит/сек

Видео

Идентификатор : 224 (0xE0)

Формат : MPEG Video

Версия формата : Version 2

Профиль формата : Main@Main

Параметр BVOP формата : Да

Параметр матрицы формата : Выборочная

Параметр GOP формата : M=3, N=13

Продолжительность : 32 м.

Битрейт : 4100 Кбит/сек

Ширина : 720 пикселей

Высота : 576 пикселей

Соотношение сторон : 4:3

Частота кадров : 25,000 кадров/сек

Стандарт вещания : PAL

Цветовое пространство : YUV

Субдискретизация насыщенности : 4:2:0

Битовая глубина : 8 бит

Тип развёртки : Чересстрочная

Порядок развёртки : Верхнее поле первое

Метод сжатия : С потерями

Бит/(Пиксели*Кадры) : 0.395

Временной код первого кадра : 00:32:38:13

Оригинал временного кода : Group of pictures header

Размер потока : 959 Мбайт (94%)

Основные цвета : BT.601 PAL

Характеристики трансфера : BT.470 System B, BT.470 System G

Коэффициенты матрицы : FCC 73.682

Аудио

Идентификатор : 192 (0xC0)

Формат : MPEG Audio

Версия формата : Version 1

Профиль формата : Layer 2

Продолжительность : 32 м.

Вид битрейта : Постоянный

Битрейт : 192 Кбит/сек

Каналы : 2 канала

Частота : 48,0 КГц

Метод сжатия : С потерями

Задержка видео : -408 мс.

Размер потока : 44,8 Мбайт (4%)

Меню

Общее

Полное имя : L:\Monar.ru\Видео\Документальные фильмы\Познавательные фильмы\Акафист преподобному Савве Сторожевскому. Приют преподобного Саввы\VIDEO_TS\VTS_02_3.VOB

Формат : MPEG-PS

Размер файла : 390 Мбайт

Продолжительность : 12 м.

Общий поток : 4386 Кбит/сек

Видео

Идентификатор : 224 (0xE0)

Формат : MPEG Video

Версия формата : Version 2

Профиль формата : Main@Main

Параметр BVOP формата : Да

Параметр матрицы формата : Выборочная

Параметр GOP формата : M=3, N=13

Продолжительность : 12 м.

Битрейт : 4100 Кбит/сек

Ширина : 720 пикселей

Высота : 576 пикселей

Соотношение сторон : 4:3

Частота кадров : 25,000 кадров/сек

Стандарт вещания : PAL

Цветовое пространство : YUV

Субдискретизация насыщенности : 4:2:0

Битовая глубина : 8 бит

Тип развёртки : Чересстрочная

Порядок развёртки : Верхнее поле первое

Метод сжатия : С потерями

Бит/(Пиксели*Кадры) : 0.395

Временной код первого кадра : 01:05:16:20

Оригинал временного кода : Group of pictures header

Размер потока : 365 Мбайт (94%)

Основные цвета : BT.601 PAL

Характеристики трансфера : BT.470 System B, BT.470 System G

Коэффициенты матрицы : FCC 73.682

Аудио

Идентификатор : 192 (0xC0)

Формат : MPEG Audio

Версия формата : Version 1

Профиль формата : Layer 2

Продолжительность : 12 м.

Вид битрейта : Постоянный

Битрейт : 192 Кбит/сек

Каналы : 2 канала

Частота : 48,0 КГц

Метод сжатия : С потерями

Задержка видео : -336 мс.

Размер потока : 17,1 Мбайт (4%)

Меню

Скриншот меню

Анаморфированные скриншоты

Скачать