Рождество Христово. Торжественное Рождественское богослужение в Казанском кафедральном соборе (Санкт-Петербург)

Скачать

Рождество Христово. Торжественное Рождественское богослужение в Казанском кафедральном соборе (Санкт-Петербург)

Рождество Христово. Торжественное Рождественское богослужение в Казанском кафедральном соборе (Санкт-Петербург)

Год выпуска: 2014

Страна: Россия

Телеканал: Петербург — Пятый канал

Дата и время выхода в эфир: 06.01.2014 22:59

Жанр: богослужение

Продолжительность: 02:59:45

Перевод: Не требуется

Источник: собственный рип

Описание:

Светлый праздник Рождества Христова – один из главных христианских праздников, установленный в честь рождения во плоти Иисуса Христа от Девы Марии. Значение Рождества – это любовь, мир и благоволение. А благоволение несет людям всепрощение, желание добра всем и каждому, полное самозабвение и любовь, объемлющую всё человечество.

Доп. информация:

Сигнал принят с ошибками, но, поскольку на трекере до сих пор не появилось ни одной записи Рождественского богослужения этого года, выкладываю как есть.

Качество: DVB

Формат: MKV

Видео: AVC, 720x576 (4:3), 1746 Kbps, 25 fps

Аудио: MP2, 48.0 KHz, 128 Kbps, CBR, 1 ch

MediaInfo

General

Unique ID : 180082848237001956240932354811577470731 (0x877AB1EACCE132B39F0538D398F38F0B)

Complete name : D:\Download\2014-01-06 Торжественное Рождественское богослужение в Казанском Кафедральном соборе (Санкт-Петербург).mkv

Format : Matroska

Format version : Version 4 / Version 2

File size : 2.40 GiB

Duration : 2h 59mn

Overall bit rate : 1 912 Kbps

Encoded date : UTC 2014-01-07 14:35:04

Writing application : mkvmerge v6.6.0 ('The Edge Of The In Between') built on Dec 1 2013 17:55:00

Writing library : libebml v1.3.0 + libmatroska v1.4.1

Video

ID : 1

Format : AVC

Format/Info : Advanced Video Codec

Format profile : Main@L3.0

Format settings, CABAC : Yes

Format settings, ReFrames : 4 frames

Format settings, GOP : M=4, N=24

Codec ID : V_MPEG4/ISO/AVC

Duration : 2h 59mn

Bit rate : 1 746 Kbps

Width : 720 pixels

Height : 576 pixels

Display aspect ratio : 4:3

Original display aspect ratio : 4:3

Frame rate mode : Constant

Frame rate : 25.000 fps

Standard : PAL

Color space : YUV

Chroma subsampling : 4:2:0

Bit depth : 8 bits

Scan type : Interlaced

Scan order : Top Field First

Bits/(Pixel*Frame) : 0.168

Stream size : 2.19 GiB (91%)

Default : Yes

Forced : No

Color primaries : BT.601 PAL

Transfer characteristics : BT.470 System B, BT.470 System G

Matrix coefficients : BT.601

Audio

ID : 2

Format : MPEG Audio

Format version : Version 1

Format profile : Layer 2

Codec ID : A_MPEG/L2

Codec ID/Hint : MP2

Duration : 2h 59mn

Bit rate mode : Constant

Bit rate : 128 Kbps

Channel count : 1 channel

Sampling rate : 48.0 KHz

Compression mode : Lossy

Stream size : 165 MiB (7%)

Language : Russian

Default : Yes

Forced : No

Скачать