Молитвенный подвиг Великого Поста

Скачать

Молитвенный подвиг Великого Поста

Молитвенный подвиг Великого Поста

Дата/Год выпуска: 14.03.2014

Страна: Россия

Жанр: торжество Православия

Продолжительность: 00:07:36

Перевод: Не требуется

Русские субтитры: нет

Оригинальная аудиодорожка: русский

Телеканал: День ТВ

Описание: Андрей Кочергин о смысле и значении Великого Поста в жизни православного христианина

качество: WEBRip

формат: AVI

Видео: xvid, 720x400 (16:9), 25.000 fps, 1 650 Kbps (0.229 bit/pixel)

Аудио: MP3, 44.1 KHz, 2 ch, 192 Kbps, CBR

MediaInfo

General

Complete name : D:\документалка\AVI\Молитвенный подвиг Великого Поста.avi

Format : AVI

Format/Info : Audio Video Interleave

File size : 101 MiB

Duration : 7mn 36s

Overall bit rate : 1 852 Kbps

Writing application : VirtualDubMod 1.5.10.2 (build 2540/release)

Writing library : VirtualDubMod build 2540/release

Video

ID : 0

Format : xvid

Codec ID : xvid

Duration : 7mn 36s

Bit rate : 1 650 Kbps

Width : 720 pixels

Height : 400 pixels

Display aspect ratio : 16:9

Frame rate : 25.000 fps

Bits/(Pixel*Frame) : 0.229

Stream size : 89.7 MiB (89%)

Audio

ID : 1

Format : MPEG Audio

Format version : Version 1

Format profile : Layer 3

Mode : Joint stereo

Mode extension : MS Stereo

Codec ID : 55

Codec ID/Hint : MP3

Duration : 7mn 36s

Bit rate mode : Constant

Bit rate : 192 Kbps

Channel(s) : 2 channels

Sampling rate : 44.1 KHz

Compression mode : Lossy

Delay relative to video : 20ms

Stream size : 10.4 MiB (10%)

Alignment : Split accross interleaves

Interleave, duration : 40 ms (1.00 video frame)

Interleave, preload duration : 500 ms

Writing library : LAME3.98.4

Скачать