Православный Пушкин (Сергей Андрюшкин)

Скачать

Православный Пушкин (Сергей Андрюшкин)

Православный Пушкин

Год выпуска: 2013

Страна: Россия

Жанр: Православно-познавательный

Продолжительность: 01:01:41

Перевод: Не требуется

Русские субтитры: нет

Режиссер: С. Андрюшкин

Описание: А.С. Пушкин является основоположником православной традиции в русской литературе. Однако о поэте бытует и другое - неверное мнение как о безбожнике. Этот фильм расскажет о том, что в действительности представляла собой жизнь поэта: непрерывный нравственный подвиг борьбы со своими страстями и с веяниями, которые навязывал век просвещения.

Тот факт, что прославленный в лике святых, митрополит Московский Филарет адресовал Пушкину строки утешения подтверждает, что гениальный талант русского поэта был не только замечен, но и особым образом признан крупнейшим церковным авторитетом того времени.

Доп. информация: Рип сделан с этого исходника -

Сэмпл: https://www.sendspace.com/file/ug5ido

Качество: DVDRip

Формат: AVI

Видео: 997 Кбит/сек, 720*432 (1,667), 25,000 кадров/сек, MPEG-4 Visual

Аудио: Русский, 128 Кбит/сек, 48,0 КГц, 2 канала, MP3

MediaInfo

Общее

Полное имя : D:\MONAR.RU\Видео\Документальные фильмы\Познавательные фильмы\Православный Пушкин.avi

Формат : AVI

Формат/Информация : Audio Video Interleave

Размер файла : 502 Мбайт

Продолжительность : 1 ч. 1 м.

Общий поток : 1138 Кбит/сек

Видео

Идентификатор : 0

Формат : MPEG-4 Visual

Профиль формата : Advanced Simple@L5

Параметр BVOP формата : 2

Параметр QPel формата : Нет

Параметр GMC формата : Без точки перехода

Параметр матрицы формата : Выборочная

Идентификатор кодека : XVID

Идентификатор кодека/Подсказка : XviD

Продолжительность : 1 ч. 1 м.

Битрейт : 997 Кбит/сек

Ширина : 720 пикселей

Высота : 432 пикселя

Соотношение сторон : 1,667

Частота кадров : 25,000 кадров/сек

Цветовое пространство : YUV

Субдискретизация насыщенности : 4:2:0

Битовая глубина : 8 бит

Тип развёртки : Прогрессивная

Метод сжатия : С потерями

Бит/(Пиксели*Кадры) : 0.128

Размер потока : 440 Мбайт (88%)

Библиотека кодирования : XviD 1.2.1 (UTC 2008-12-04)

Аудио

Идентификатор : 1

Формат : MPEG Audio

Версия формата : Version 1

Профиль формата : Layer 3

Идентификатор кодека : 55

Идентификатор кодека/Подсказка : MP3

Продолжительность : 1 ч. 1 м.

Продолжительность оригинала : 1 ч. 1 м.

Вид битрейта : Постоянный

Битрейт : 128 Кбит/сек

Каналы : 2 канала

Частота : 48,0 КГц

Метод сжатия : С потерями

Размер потока : 56,5 Мбайт (11%)

Выравнивание : Разделение по промежуткам

Продолжительность промежутка : 24 мс. (0,60 видеокадр)

18.08.14 Торрент-файл перезалит. Рип переделан с ненарушенным соотношением сторон.

Скачать