Киево-Печерская Лавра (Сергей Андрюшкин)

Скачать

Киево-Печерская Лавра (Сергей Андрюшкин)

Киево-Печерская Лавра

Год выпуска: 2013

Страна: Россия

Жанр: Православные святыни

Продолжительность: 00:51:58

Перевод: Не требуется

Русские субтитры: нет

Режиссер: С. Андрюшкин

Описание: Киево-Печерская Лавра является символом крепости православной веры. Во все времена эта обитель противостояла иноземным захватчикам, насаждению западной культуры и религии; была неоднократно разрушена почти до основания, но возрождалась вновь. В пещерах Киево-Печерской Лавры покоятся мощи сотен святых, таких как Антоний и Феодосий Киево-Печерские, Нестор Летописец, Илья Муромец и т.д.

Доп. информация: Медиа-проект "Толк и польза" осуществляется при содействии архиепископа Егорьевского Марка.

Это ознакомительная версия фильма, короче оригинальной примерно на минуту. Также отсутствует рекламный ролик студии.

Рип сделан с этого исходника:

Сэмпл: http://www.sendspace.com/file/q7itxu

Качество: DVDRip

Формат: AVI

Видео: 1989 Кбит/сек, 720*544 (4:3), 25,000 кадров/сек, MPEG-4 Visual

Аудио: Русский, 128 Кбит/сек, 48,0 КГц, 2 канала, MP3

MediaInfo

Общее

Полное имя : D:\MONAR.RU\Видео\Документальные фильмы\Святыни Вселенского Православия\Киево-Печерская Лавра.avi

Формат : AVI

Формат/Информация : Audio Video Interleave

Размер файла : 791 Мбайт

Продолжительность : 51 м.

Общий поток : 2127 Кбит/сек

Видео

Идентификатор : 0

Формат : MPEG-4 Visual

Профиль формата : Advanced Simple@L5

Параметр BVOP формата : 2

Параметр QPel формата : Нет

Параметр GMC формата : Без точки перехода

Параметр матрицы формата : Выборочная

Идентификатор кодека : XVID

Идентификатор кодека/Подсказка : XviD

Продолжительность : 51 м.

Битрейт : 1989 Кбит/сек

Ширина : 720 пикселей

Высота : 544 пикселя

Соотношение сторон : 4:3

Частота кадров : 25,000 кадров/сек

Цветовое пространство : YUV

Субдискретизация насыщенности : 4:2:0

Битовая глубина : 8 бит

Тип развёртки : Прогрессивная

Метод сжатия : С потерями

Бит/(Пиксели*Кадры) : 0.203

Размер потока : 739 Мбайт (94%)

Библиотека кодирования : XviD 1.2.1 (UTC 2008-12-04)

Аудио

Идентификатор : 1

Формат : MPEG Audio

Версия формата : Version 1

Профиль формата : Layer 3

Идентификатор кодека : 55

Идентификатор кодека/Подсказка : MP3

Продолжительность : 51 м.

Продолжительность оригинала : 51 м.

Вид битрейта : Постоянный

Битрейт : 128 Кбит/сек

Каналы : 2 канала

Частота : 48,0 КГц

Метод сжатия : С потерями

Размер потока : 47,6 Мбайт (6%)

Выравнивание : Соединение по промежуткам

Продолжительность промежутка : 40 мс. (1,00 видеокадр)

Скачать