Барри Керзин. 2013.09.22. Как встретить смерть во всеоружии? Москва

Скачать

Барри Керзин. 2013.09.22. Как встретить смерть во всеоружии? Москва

Барри Керзин. 2013.09.22. Как встретить смерть во всеоружии? Москва

Год выпуска: 2013

Страна: Россия

Жанр: Буддийские наставления

Тип материала: Видеолекция

Продолжительность: 02:03:18

Язык: Английский + Русский (последовательный перевод)-Описание:

Буддийские наставления досточтимого Барри Керзина в г. Москве:

2013.09.202. Как встретить смерть во всеоружии?-Доп. информация:

Организатор лекций: Фонд "Сохраним Тибет".

Перевод: Наталья Иноземцева.-Качество: DVB 1080p

Формат: MP4

Видео: AVC, 1920x1080, 16:9, VBR 25.000 fps, VBR 3000 Kbps

Аудио: AAC, 48 kHz, 2 ch, VBR 129 kbps

Сэмпл: http://sendfile.su/1093449

Отчет MediaInfo

General

Complete name : I:\DHARMA\Барри_Керзин\2013_09_22__Как_встретить_смерть_во_всеоружии\2013_09_22__Как_встретить_смерть_во_всеоружии__Барри_Керзин__Москва__AVCHD_(1)\2013_09_22__Как_встретить_смерть_во_всеоружии__Барри_Керзин__Москва__AVCHD_01(1).mp4

Format : MPEG-4

Format profile : Base Media / Version 2

Codec ID : mp42

File size : 2.70 GiB

Duration : 2h 3mn

Overall bit rate mode : Variable

Overall bit rate : 3 133 Kbps

Encoded date : UTC 2013-10-25 20:02:34

Tagged date : UTC 2013-10-25 21:39:10

Writing application : HandBrake 0.9.6 2012022800

Video

ID : 1

Format : AVC

Format/Info : Advanced Video Codec

Format profile : Main@L4.0

Format settings, CABAC : Yes

Format settings, ReFrames : 4 frames

Codec ID : avc1

Codec ID/Info : Advanced Video Coding

Duration : 2h 3mn

Bit rate mode : Variable

Bit rate : 3 000 Kbps

Width : 1 920 pixels

Height : 1 080 pixels

Display aspect ratio : 16:9

Frame rate mode : Variable

Frame rate : 25.000 fps

Minimum frame rate : 8.333 fps

Maximum frame rate : 25.000 fps

Color space : YUV

Chroma subsampling : 4:2:0

Bit depth : 8 bits

Scan type : Progressive

Bits/(Pixel*Frame) : 0.058

Stream size : 2.58 GiB (96%)

Writing library : x264 core 120

Encoding settings : cabac=1 / ref=1 / deblock=1:0:0 / analyse=0x1:0x111 / me=hex / subme=2 / psy=1 / psy_rd=1.00:0.00 / mixed_ref=0 / me_range=16 / chroma_me=1 / trellis=0 / 8x8dct=0 / cqm=0 / deadzone=21,11 / fast_pskip=1 / chroma_qp_offset=0 / threads=6 / sliced_threads=0 / nr=0 / decimate=1 / interlaced=0 / bluray_compat=0 / constrained_intra=0 / bframes=3 / b_pyramid=2 / b_adapt=1 / b_bias=0 / direct=1 / weightb=1 / open_gop=0 / weightp=1 / keyint=250 / keyint_min=25 / scenecut=40 / intra_refresh=0 / rc_lookahead=10 / rc=2pass / mbtree=1 / bitrate=3000 / ratetol=1.0 / qcomp=0.60 / qpmin=3 / qpmax=69 / qpstep=4 / cplxblur=20.0 / qblur=0.5 / ip_ratio=1.40 / aq=1:1.00

Encoded date : UTC 2013-10-25 20:02:34

Tagged date : UTC 2013-10-25 21:39:10

Color primaries : BT.709

Transfer characteristics : BT.709

Matrix coefficients : BT.709

Audio

ID : 2

Format : AAC

Format/Info : Advanced Audio Codec

Format profile : LC

Codec ID : 40

Duration : 2h 3mn

Bit rate mode : Variable

Bit rate : 129 Kbps

Maximum bit rate : 138 Kbps

Channel(s) : 2 channels

Channel positions : Front: L R

Sampling rate : 48.0 KHz

Compression mode : Lossy

Delay relative to video : 160ms

Stream size : 114 MiB (4%)

Language : English

Encoded date : UTC 2013-10-25 20:02:34

Tagged date : UTC 2013-10-25 21:39:10

Барри Керзин

Барри Керзин – доктор медицины (США), личный врач Его Святейшества Далай-ламы и буддийский монах. Более двадцати лет проживает в Дхарамсале (Индия), оказывая профессиональную медицинскую помощь не только высоким ламам, но и малоимущим слоям населения.

Сочетая в себе многолетнюю практику буддийской медитации и знания западного ученого, Барри Керзин посвятил многие годы изучению влияния практик созерцания на психо-физическое здоровье человека, исследуя структурные и функциональные отличия мозга длительно практикующего медитацию от мозга обычного человека.

Барри Керзин - один из немногих врачей, осведомленных о состоянии посмертной медитации - «тукдам» и занимающихся практик способен оставаться в медитации на ясный свет, удерживая тело от распада и сохраняя внутреннее тепло. Барри Керзину трижды выпадала честь заботиться о великих созерцателях, погрузившихся в посмертное медитативное состояние.

По благословению Е.С. Далай-ламы, Барри Керзин преподает буддийскую философию, обучает основам медитации, проводит ретриты молчания в странах Северной Америки и Европы, а также в Японии и Монголии.

Все лекции наставника в каталоге

Скачать