Brat and Richard Caudle - Rock 'n Learn Phonics

Скачать

Rock 'n Learn Phonics V.1

Год выпуска: 2002 г.

Автор: Brat and Richard Caudle

Категория: Обучающее и развлекающее видео

Разработчик: Rock 'n Learn Co

Язык курса: Английский

Качество видео: DVD5

Формат видео: DVD Video

Видео: NTSC 4:3 (720х480)

Аудио: 1536 Кбит/сек 2 канала 48,0 КГц

Описание:

В фильме представлено произношения разных английских букв носителями "языка".

Все это сопровождается зажигательной музыкой и мультиками.

скрытый текст

Формат : MPEG-PS

Общий поток : 6672 Кбит/сек

Видео

Идентификатор : 224 (0xE0)

Формат : MPEG Video

Версия формата : Version 2

Профиль формата : Main@Main

Параметр BVOP формата : Да

Параметр матрицы формата : По умолчанию

Параметры GOP формата : M=3, N=15

Продолжительность : 21 м.

Вид битрейта : Постоянный

Битрейт : 5000 Кбит/сек

Ширина : 720 пикс.

Высота : 480 пикс.

Соотношение сторон : 4:3

Частота кадров : 29,970 кадр/сек

Стандарт вещания : NTSC

Цветовое пространство : YUV

Подвыборка цветности : 4:2:0

Битовая глубина : 8 бит

Тип развёртки : Чересстрочная

Порядок развёртки : Нижнее поле первое

Метод сжатия : С потерями

Бит/(Пиксели*Кадры) : 0.483

Размер потока : 768 Мбайт (75%)

Аудио

Идентификатор : 160 (0xA0)

Формат : PCM

Параметр Endianness формата : Big

Параметр Sign формата : Signed

Режим смешивания : DVD-Video

Вид битрейта : Постоянный

Битрейт : 1536 Кбит/сек

Канал(ы) : 2 канала(ов)

Расположение каналов : Front: L R

Частота : 48,0 КГц

Битовая глубина : 16 бит

Задержка видео : -512 мс.

Размер потока : 236 Мбайт (23%)

Скачать