Рыбалка Сергей - Легенды и мифы Древней Греции: Орфей и Эвридика

Скачать

 Рыбалка Сергей - Легенды и мифы Древней Греции: Орфей и Эвридика

Легенды и мифы Древней Греции: Орфей и Эвридика

Год выпуска CD: 2006

Автор сценария / режиссёр / музыка: Сергей Рыбалка

Исполнители: Дмитрий Борисов, Наталья Войник, Марина Волкова, Дмитрий Гончаров, Мария Горбачёва, Руслана Дедик, Наталья Зорькина, Сергей Кашуцкий, Николай Конев, Екатерина Кочеткова, Николай Прилуцкий, Сергей Рыбалка

Жанр: Инсценировка / аудиоспектакль

Издательство, номер по каталогу: Два жирафа, DJ-D133

Аудио кодек: WAVPack

Тип рипа: image+.cue

Битрейт аудио: lossless

Время звучания: 0:54:04

Производитель диска: Россия

Штрихкод издания: 4602074101339

Источник: ley-barmaley / lossless-galaxy

Наличие сканов в содержимом раздачи: полное сканирование (JPG, 300dpi)

Миф об Орфее и Эвридике - красивая и печальная история любви.

Потеряв любимую, Орфей отправляется за ней в подземное царство к грозному богу смерти Аиду. Ведь жизнь без любимой тяжела и невыносима, и никакие земные радости не могут помочь Орфею забыть прекрасную Эвридику.

EAC log

Exact Audio Copy V1.0 beta 3 from 29. August 2011

Отчёт EAC об извлечении, выполненном 16. ноября 2012, 15:30

Дмитрий Борисов, Наталья Войник, Марина Волкова, Дмитрий Гончаров, Мария Горбачёва, Руслана Дедик, Наталья Зорькина и другие / Легенды и мифы Древней Греции: Орфей и Эвридика (Два жирафа, DJ-D133)

Дисковод: ASUS DRW-1814BL Adapter: 0 ID: 0

Режим чтения : Достоверность

Использование точного потока : Да

Отключение кэша аудио : Да

Использование указателей C2 : Нет

Коррекция смещения при чтении : 6

Способность читать области Lead-in и Lead-out : Нет

Заполнение пропущенных сэмплов тишиной : Да

Удаление блоков с тишиной в начале и конце : Нет

При вычислениях CRC использовались нулевые сэмплы : Да

Интерфейс : Встроенный Win32-интерфейс для Win NT/2000

Выходной формат : Внутренние WAV-операции

Формат сэмплов : 44.100 Гц; 16 бит; стерео

TOC извлечённого CD

Трек | Старт | Длительность | Начальный сектор | Конечный сектор

---------------------------------------------------------------------

1 | 0:00.00 | 10:40.00 | 0 | 47999

2 | 10:40.00 | 9:26.00 | 48000 | 90449

3 | 20:06.00 | 7:44.00 | 90450 | 125249

4 | 27:50.00 | 8:18.00 | 125250 | 162599

5 | 36:08.00 | 9:03.00 | 162600 | 203324

6 | 45:11.00 | 8:53.00 | 203325 | 243299

Характеристики диапазона извлечения и сообщения об ошибках

Выбранный диапазон

Имя файла G:\ley-barmaley\музыкальные сказки на сайте lossless-galaxy.ru\Легенды и мифы Древней Греции - Орфей и Эвридика (Два жирафа, DJ-D133).wav

Пиковый уровень 98.8 %

Скорость извлечения 3.1 X

Качество диапазона 99.9 %

CRC теста E10A49DC

CRC копии E10A49DC

Копирование... OK

Ошибок не произошло

AccurateRip: сводка

Трек 1 отсутствует в базе данных

Трек 2 отсутствует в базе данных

Трек 3 отсутствует в базе данных

Трек 4 отсутствует в базе данных

Трек 5 отсутствует в базе данных

Трек 6 отсутствует в базе данных

Ни одного трека нет в базе AccurateRip

Конец отчёта

---- CUETools DB Plugin V2.1.3

[CTDB TOCID: B2eCpBN4qLV3a6nLl_g4nTnftMk-] disk not present in database, Submit result: B2eCpBN4qLV3a6nLl_g4nTnftMk- has been uploaded

==== Контрольная сумма отчёта 0547C1BBFC785B390DC17D6BAB9B391829A9E1FD2E7BE61FAFB42D38BEC6671E ====

auCDtect

-----------------------

DON'T MODIFY THIS FILE

-----------------------

PERFORMER: auCDtect Task Manager, ver. 1.5.1RC3 build 1.5.1.4

Copyright (c) 2008-2010 y-soft. All rights reserved

http://y-soft.org

ANALYZER: auCDtect: CD records authenticity detector, version 0.8.2

Copyright (c) 2004 Oleg Berngardt. All rights reserved.

Copyright (c) 2004 Alexander Djourik. All rights reserved.

FILE: Легенды и мифы Древней Греции - Орфей и Эвридика (Два жирафа, DJ-D133).wv

Size: 323619566 Hash: 68CC128200E00DE57302E702B25AE44F Accuracy: -m0

Conclusion: CDDA 100%

Signature: CA7DF737BCE15B9B4CD517C164850EACAAB75F41

FILE: Легенды и мифы Древней Греции - Орфей и Эвридика (Два жирафа, DJ-D133).wav

Size: 572241644 Hash: 68CC128200E00DE57302E702B25AE44F Accuracy: -m0

Conclusion: CDDA 100%

Signature: AA1E4BAD18D2C2EFC51BD6D34CCBBAC3DB1912A5

CD & matrix

Другие аудиоспектакли

Скачать