Карло Гольдони - Слуга двух господ

Скачать

 Карло Гольдони - Слуга двух господ

Слуга двух господ

Год выпуска: 2009

Автор: Карло Гольдони

Исполнитель: Артисты театров Лев Дуров, Андрей Зенин, Татьяна Божок, Александр Макаров, Дмитрий Кобряков, и др.

Жанр: Комедия

Издательство: ООО "Архив мировой литературы"

Тип: аудиоспектакль

Аудио кодек: FLAC (image+.cue)

Битрейт аудио: lossless

Описание:

Серия "Театральный фонограф"

Забавная история случившаяся 250 лет тому назад, началась с убийства богатого сеньора Федерико, за которого венецианский купец Панталоне обещал выдать свою дочь Клариче. И тогда пришлось Панталоне отдать свою дочь за Сильвио, сына местного доктора. Однако в день помолвки молодых, в дом Панталоне вдруг является убитый Федерико. Только Бригелла, содержатель гостиницы, узнаёт в этом "приведении" его сестру Беатриче. Её слуга ловкий малый Труффальдино, неожиданно для самого себя начинает прислуживать и возлюбленному своей хозяйки Флориндо. Парадоксальность ситуации в том. что оба господина до конца пьесы даже и не догадываются, что у них один слуга на двоих.

Роли исполняют:

От автора - Андрей Зенин

Панталоне деи Бизоньози - Лев Дуров

Клариче, его дочь - Татьяна Божок

Доктор Ломбарди, Слуга Панталоне - Александр Макаров

Слуга в гостинице, Носильщик

Сильвио. сын Доктора Ломбарди - Дмитрий Кобряков

Беатриче Распони из Турина - Екатерина Дурова

Флориндо Аретузи из Турина - Владимир Феофанов

Бригелла, хозяин гостиницы, Носильщик - Владимир Ершов

Смеральдина, служанка Панталоне - Татьяна Ошуркова

Труффальдино, слуга Беатриче, потом Флориндо - Виктор Поляков

вклейка

Доп. информация:

Время звучания: 2 часа 10 минут

Раздача МР3

log CD 1

Exact Audio Copy V0.99 prebeta 5 from 4. May 2009

EAC extraction logfile from 26. December 2009, 23:30

Unknown Artist / Unknown Title

Used drive : HL-DT-STDVD-RW GSA-H60L Adapter: 2 ID: 1

Read mode : Secure

Utilize accurate stream : Yes

Defeat audio cache : Yes

Make use of C2 pointers : No

Read offset correction : 0

Overread into Lead-In and Lead-Out : No

Fill up missing offset samples with silence : Yes

Delete leading and trailing silent blocks : No

Null samples used in CRC calculations : No

Used interface : Native Win32 interface for Win NT & 2000

Used output format : User Defined Encoder

Selected bitrate : 779 kBit/s

Quality : High

Add ID3 tag : No

Command line compressor :Flac\flac.exe

Additional command line options : -8 -V -T "ARTIST=%a" -T "TITLE=%t" -T "ALBUM=%g" -T "DATE=%y" -T "TRACKNUMBER=%n" -T "GENRE=%m" -T "COMMENT=EAC FLAC -8" %s

TOC of the extracted CD

Track | Start | Length | Start sector | End sector

---------------------------------------------------------

1 | 0:00.00 | 1:21.04 | 0 | 6078

2 | 1:21.04 | 49:55.69 | 6079 | 230772

Range status and errors

Selected range

Filename Unknown Artist - Unknown Title.wav

Peak level 99.3 %

Range quality 100.0 %

Test CRC AC0AFC79

Copy CRC AC0AFC79

Copy OK

No errors occurred

End of status report

log CD 2

Exact Audio Copy V0.99 prebeta 5 from 4. May 2009

EAC extraction logfile from 27. December 2009, 0:04

Unknown Artist / Unknown Title

Used drive : HL-DT-STDVD-RW GSA-H60L Adapter: 2 ID: 1

Read mode : Secure

Utilize accurate stream : Yes

Defeat audio cache : Yes

Make use of C2 pointers : No

Read offset correction : 0

Overread into Lead-In and Lead-Out : No

Fill up missing offset samples with silence : Yes

Delete leading and trailing silent blocks : No

Null samples used in CRC calculations : No

Used interface : Native Win32 interface for Win NT & 2000

Used output format : User Defined Encoder

Selected bitrate : 779 kBit/s

Quality : High

Add ID3 tag : No

Command line compressor : Flac\flac.exe

Additional command line options : -8 -V -T "ARTIST=%a" -T "TITLE=%t" -T "ALBUM=%g" -T "DATE=%y" -T "TRACKNUMBER=%n" -T "GENRE=%m" -T "COMMENT=EAC FLAC -8" %s

TOC of the extracted CD

Track | Start | Length | Start sector | End sector

---------------------------------------------------------

1 | 0:00.00 | 40:15.01 | 0 | 181125

2 | 40:15.01 | 38:34.59 | 181126 | 354734

Range status and errors

Selected range

Filename Unknown Artist - Unknown Title.wav

Peak level 96.0 %

Range quality 99.9 %

Test CRC C3933BE9

Copy CRC F3544350

Copy OK

No errors occurred

End of status report

Скачать