Харрис Джоэль: Сказки дядюшки Римуса (Мелодия-детям)

Скачать

 Харрис Джоэль: Сказки дядюшки Римуса (Мелодия-детям)

Сказки дядюшки Римуса

Год записи аудиоспектакля / издан на CD: 1967, 1968, 1973 / 2010

Автор: Джоэль Чандлер Харрис

Исполнители: Николай Литвинов, Наталья Минаева, Ирина Потоцкая, Анатолий Баранцев, 3инаида Нарышкина, Маргарита Корабельникова, Леонид Пирогов;

Всеволод Соболев, Татьяна Захава, Зоя Пыльнова, Андрей Крюков, Юрий Смирнов, Лев Штейнрайх

Жанр: Аудиоспектакль

Издательство, номер по каталогу: Мелодия, MEL CD 50 01723

Аудиокодек: WavPack

Тип рипа: image+.cue

Битрейт: lossless

Время звучания: 1:19:04

Производитель диска: Россия

Источник: ley-barmaley / lossless-galaxy

Наличие сканов в содержимом раздачи: полное сканирование (JPG, 600dpi)

«Сказки дядюшки Римуса. Передача 1» (1967)

История о том, как братец лис чуть не поймал братца кролика с помощью смоляного чучелка.

История о том, как братец кролик отомстил братцу лису, использовав его как верховую лошадь.

Треки 1-5

Дядюшка Римус - Николай Литвинов

Джоэль - Наталья Минаева

Братец Кролик - Ирина Потоцкая

Братец Лис - Анатолий Баранцев

Тётушка Мидоус - 3инаида Нарышкина

«Сказки дядюшки Римуса. Передача 2» (1968)

История о том, как братец кролик присвоил пойманную братцем лисом рыбу.

История о том, как братец кролик, угодив в колодец, благополучно освободился, заманив туда братца лиса.

История о том, как братец кролик наказал братца волка, вздумавшего его перехитрить с помощью братца лиса.

Треки 6-9

Дядюшка Римус - Николай Литвинов

Джоэль - Маргарита Корабельникова

Братец Кролик - Ирина Потоцкая

Братец Лис - Анатолий Баранцев

Братец Волк - Леонид Пирогов

«Неутомимый братец Кролик» (1973)

История о том, как братец кролик, съев чужое масло, переложил вину на братца волка.

История о том, как братец кролик, воровавший горох братца лиса, хитростью освободился из ловушки.

Треки 10-15

Дядюшка Римус - Всеволод Соболев

Джоэль - Татьяна Захава

Братец Кролик - Зоя Пыльнова

Братец Лис - Андрей Крюков

Братец Волк - Юрий Смирнов

Братец Медведь - Лев Штейнрайх

EAC log

Exact Audio Copy V1.0 beta 3 from 29. August 2011

Отчёт EAC об извлечении, выполненном 11. декабря 2013, 14:15

Николай Литвинов, Ирина Потоцкая, Анатолий Баранцев и другие / Сказки дядюшки Римуса (Мелодия, MEL CD 50 01723)

Дисковод: ASUS DRW-1814BL Adapter: 0 ID: 0

Режим чтения : Достоверность

Использование точного потока : Да

Отключение кэша аудио : Да

Использование указателей C2 : Нет

Коррекция смещения при чтении : 6

Способность читать области Lead-in и Lead-out : Нет

Заполнение пропущенных сэмплов тишиной : Да

Удаление блоков с тишиной в начале и конце : Нет

При вычислениях CRC использовались нулевые сэмплы : Да

Интерфейс : Встроенный Win32-интерфейс для Win NT/2000

Выходной формат : Внутренние WAV-операции

Формат сэмплов : 44.100 Гц; 16 бит; стерео

TOC извлечённого CD

Трек | Старт | Длительность | Начальный сектор | Конечный сектор

---------------------------------------------------------------------

1 | 0:00.00 | 4:05.50 | 0 | 18424

2 | 4:05.50 | 6:16.48 | 18425 | 46672

3 | 10:22.23 | 6:01.19 | 46673 | 73766

4 | 16:23.42 | 3:33.13 | 73767 | 89754

5 | 19:56.55 | 4:52.41 | 89755 | 111695

6 | 24:49.21 | 6:17.00 | 111696 | 139970

7 | 31:06.21 | 6:01.39 | 139971 | 167084

8 | 37:07.60 | 6:26.19 | 167085 | 196053

9 | 43:34.04 | 6:33.56 | 196054 | 225584

10 | 50:07.60 | 5:57.22 | 225585 | 252381

11 | 56:05.07 | 4:55.54 | 252382 | 274560

12 | 61:00.61 | 4:04.51 | 274561 | 292911

13 | 65:05.37 | 4:26.43 | 292912 | 312904

14 | 69:32.05 | 4:20.60 | 312905 | 332464

15 | 73:52.65 | 5:11.29 | 332465 | 355818

Характеристики диапазона извлечения и сообщения об ошибках

Выбранный диапазон

Имя файла G:\ley-barmaley\музыкальные сказки на сайте lossless-galaxy.ru\Сказки дядюшки Римуса (Мелодия, MEL CD 50 01723).wav

Пиковый уровень 89.1 %

Скорость извлечения 3.4 X

Качество диапазона 99.9 %

CRC теста CBCC9FBB

CRC копии CBCC9FBB

Копирование... OK

Ошибок не произошло

AccurateRip: сводка

Трек 1 : извлечено точно (доверие 2) [BC6FE935] (AR v2)

Трек 2 : извлечено точно (доверие 2) [FE97DB80] (AR v2)

Трек 3 : извлечено точно (доверие 2) [E3E2F28D] (AR v2)

Трек 4 : извлечено точно (доверие 2) [069A7077] (AR v2)

Трек 5 : извлечено точно (доверие 2) [3674FC43] (AR v2)

Трек 6 : извлечено точно (доверие 2) [B86FC20A] (AR v2)

Трек 7 : извлечено точно (доверие 2) [CF6DED24] (AR v2)

Трек 8 : извлечено точно (доверие 2) [C0905495] (AR v2)

Трек 9 : извлечено точно (доверие 2) [72C87E56] (AR v2)

Трек 10 : извлечено точно (доверие 2) [EED482D9] (AR v2)

Трек 11 : извлечено точно (доверие 2) [69B23F8B] (AR v2)

Трек 12 : извлечено точно (доверие 2) [A79A74BD] (AR v2)

Трек 13 : извлечено точно (доверие 2) [216A688D] (AR v2)

Трек 14 : извлечено точно (доверие 2) [113FEA5A] (AR v2)

Трек 15 : извлечено точно (доверие 2) [6662649E] (AR v2)

Все треки извлечены точно

Конец отчёта

---- CUETools DB Plugin V2.1.3

[CTDB TOCID: dQxbHOEoytGhRTABdGOJJ_8Bwvw-] found, Submit result: dQxbHOEoytGhRTABdGOJJ_8Bwvw- has been confirmed

[4c3cfe52] (1/1) Accurately ripped

==== Контрольная сумма отчёта D44CC885ED91914E0DA14F47D48E078B6B5580A53251C98FEC0DEDD1C9ECD414 ====

Dynamic Range Meter

foobar2000 1.1.15 / Dynamic Range Meter 1.1.1

log date: 2013-12-11 14:21:39

--------------------------------------------------------------------------------

Analyzed: Дядюшка Римус - Всеволод Соболев; Джоэль - Татьяна Захава; Братец Кролик - Зоя Пыльнова; Братец Лис - Андрей Крюков; Братец Волк - Юрий Смирнов; Братец Медведь - Лев Штейнрайх" / Сказки дядюшки Римуса (Мелодия, MEL CD 50 01723) (1)

Дядюшка Римус - Всеволод Соболев; Джоэль - Татьяна Захава; Братец Кролик - Зоя Пыльнова; Братец Лис - Андрей Крюков; Братец Волк - Юрий Смирнов; Братец Медведь - Лев Штейнрайх / Сказки дядюшки Римуса (Мелодия, MEL CD 50 01723) (2-6)

--------------------------------------------------------------------------------

DR Peak RMS Duration Track

--------------------------------------------------------------------------------

DR16 -2.61 dB -23.10 dB 5:57 10-Неутомимый братец Кролик. Часть 1

DR14 -2.21 dB -21.68 dB 4:56 11-Неутомимый братец Кролик. Часть 2

DR14 -2.47 dB -21.05 dB 4:05 12-Неутомимый братец Кролик. Часть 3

DR16 -3.23 dB -23.61 dB 4:27 13-Неутомимый братец Кролик. Часть 4

DR12 -3.74 dB -21.05 dB 4:21 14-Неутомимый братец Кролик. Часть 5

DR17 -3.14 dB -24.90 dB 5:11 15-Неутомимый братец Кролик. Часть 6

--------------------------------------------------------------------------------

Number of tracks: 6

Official DR value: DR15

Samplerate: 44100 Hz

Channels: 2

Bits per sample: 16

Bitrate: 626 kbps

Codec: WavPack

================================================================================

--------------------------------------------------------------------------------

Analyzed: Дядюшка Римус - Николай Литвинов; Джоэль - Маргарита Корабельникова; Братец Кролик - Ирина Потоцкая; Братец Лис - Анатолий Баранцев; Братец Волк - Леонид Пирогов / Сказки дядюшки Римуса (Мелодия, MEL CD 50 01723)

--------------------------------------------------------------------------------

DR Peak RMS Duration Track

--------------------------------------------------------------------------------

DR13 -2.85 dB -20.13 dB 6:17 06-Сказки дядюшки Римуса. Передача 2. Часть 1

DR13 -3.56 dB -20.52 dB 6:02 07-Сказки дядюшки Римуса. Передача 2. Часть 2

DR12 -3.44 dB -19.41 dB 6:26 08-Сказки дядюшки Римуса. Передача 2. Часть 3

DR13 -3.95 dB -20.33 dB 6:34 09-Сказки дядюшки Римуса. Передача 2. Часть 4

--------------------------------------------------------------------------------

Number of tracks: 4

Official DR value: DR13

Samplerate: 44100 Hz

Channels: 2

Bits per sample: 16

Bitrate: 626 kbps

Codec: WavPack

================================================================================

--------------------------------------------------------------------------------

Analyzed: Дядюшка Римус - Николай Литвинов; Джоэль - Наталья Минаева; Братец Кролик - Ирина Потоцкая; Братец Лис - Анатолий Баранцев; Тетушка Мидоус - 3инаида Нарышкина / Сказки дядюшки Римуса (Мелодия, MEL CD 50 01723)

--------------------------------------------------------------------------------

DR Peak RMS Duration Track

--------------------------------------------------------------------------------

DR13 -2.61 dB -20.56 dB 4:06 01-Сказки дядюшки Римуса. Передача 1. Часть 1

DR14 -1.00 dB -19.59 dB 6:17 02-Сказки дядюшки Римуса. Передача 1. Часть 2

DR13 -2.28 dB -19.38 dB 6:01 03-Сказки дядюшки Римуса. Передача 1. Часть 3

DR13 -2.04 dB -19.23 dB 3:33 04-Сказки дядюшки Римуса. Передача 1. Часть 4

DR15 -1.25 dB -19.96 dB 4:53 05-Сказки дядюшки Римуса. Передача 1. Часть 5

--------------------------------------------------------------------------------

Number of tracks: 5

Official DR value: DR14

Samplerate: 44100 Hz

Channels: 2

Bits per sample: 16

Bitrate: 626 kbps

Codec: WavPack

================================================================================

auCDtect

-----------------------

DON'T MODIFY THIS FILE

-----------------------

PERFORMER: auCDtect Task Manager, ver. 1.5.1RC3 build 1.5.1.4

Copyright (c) 2008-2010 y-soft. All rights reserved

http://y-soft.org

ANALYZER: auCDtect: CD records authenticity detector, version 0.8.2

Copyright (c) 2004 Oleg Berngardt. All rights reserved.

Copyright (c) 2004 Alexander Djourik. All rights reserved.

FILE: Сказки дядюшки Римуса (Мелодия, MEL CD 50 01723).wv

Size: 371444854 Hash: 59E3E3EE8DC541224E42378FC51B8AD6 Accuracy: -m0

Conclusion: CDDA 99%

Signature: 4DAB2E001147EF99C72C8E92E2AAEA24D41BCCF2

FILE: Сказки дядюшки Римуса (Мелодия, MEL CD 50 01723).wav

Size: 836886332 Hash: 59E3E3EE8DC541224E42378FC51B8AD6 Accuracy: -m0

Conclusion: CDDA 99%

Signature: 308A2B9E3B6A25FF86BAF36FA97873E639DE78C2

CD & matrix

модератору

Раздача под поглощение:

Другие аудиоспектакли

Скачать