Страна снеговиков: Песенка снеговика / Новогодняя сказка о снеговике / Новогодняя лесная сказка / Острова снеговиков / Новогодние подарки / Солнышко и снеговики

Скачать

 Страна снеговиков: Песенка снеговика / Новогодняя сказка о снеговике / Новогодняя лесная сказка / Острова снеговиков / Новогодние подарки / Солнышко и снеговики

Страна снеговиков

Год записи аудиоспектакля / издан на CD: 1963-1988 / 2013

Исполнители: Зиновий Гердт, Николай Литвинов, Зинаида Бокарёва, Алексей Борзунов, Галина Новожилова и другие

Жанр: Сказка / Аудиоспектакль

Издательство, номер по каталогу: Студия "Звуковая книга", Диск №59

Аудиокодек: WavPack

Тип рипа: image+.cue

Битрейт: lossless

Время звучания: 1:02:29

Производитель диска: Россия

Источник: ley-barmaley / lossless-galaxy

Наличие сканов в содержимом раздачи: полное сканирование (JPG, 300dpi)

«Песенка снеговика»

Исполнитель: Зиновий Гердт и инструментальный ансамбль под управлением Леона Елецкого. (1976)

«Новогодняя сказка о снеговике»

Исполнитель: Николай Литвинов. (1983)

«Новогодняя лесная сказка»

Исполнитель: Зинаида Бокарёва. (1987)

«Острова снеговиков»

Исполнитель: Алексей Борзунов. (1988)

«Новогодние подарки»

Исполнитель: Галина Новожилова. (1988)

«Солнышко и снеговики»

Роли и исполнители:

Сказочник - Николай Литвинов

Снеговик - Георгий Куликов

Снежная баба - Людмила Шапошникова

Снеговичок - Лидия Портнова

Белочка - Наталья Львова

Заяц и Ворона - Ирина Потоцкая

Дятел - Лев Шабарин

Автор - Миоаре Кремене

Автор инсценировки - Вера Вартанова

Автор музыки - Лидия Аустер

(1963)

EAC log

Exact Audio Copy V1.0 beta 3 from 29. August 2011

Отчёт EAC об извлечении, выполненном 28. ноября 2014, 22:05

Николай Литвинов и другие / Страна снеговиков (Звуковая книга, Диск №59)

Дисковод: Optiarc DVD RW AD-7173A Adapter: 0 ID: 0

Режим чтения : Достоверность

Использование точного потока : Да

Отключение кэша аудио : Да

Использование указателей C2 : Нет

Коррекция смещения при чтении : 48

Способность читать области Lead-in и Lead-out : Нет

Заполнение пропущенных сэмплов тишиной : Да

Удаление блоков с тишиной в начале и конце : Нет

При вычислениях CRC использовались нулевые сэмплы : Да

Интерфейс : Встроенный Win32-интерфейс для Win NT/2000

Выходной формат : Внутренние WAV-операции

Формат сэмплов : 44.100 Гц; 16 бит; стерео

TOC извлечённого CD

Трек | Старт | Длительность | Начальный сектор | Конечный сектор

---------------------------------------------------------------------

1 | 0:00.00 | 0:04.00 | 0 | 299

2 | 0:04.00 | 2:02.30 | 300 | 9479

3 | 2:06.30 | 8:27.65 | 9480 | 47569

4 | 10:34.20 | 8:57.66 | 47570 | 87910

5 | 19:32.11 | 8:50.11 | 87911 | 127671

6 | 28:22.22 | 8:53.26 | 127672 | 167672

7 | 37:15.48 | 11:42.70 | 167673 | 220392

8 | 48:58.43 | 11:26.23 | 220393 | 271865

9 | 60:24.66 | 2:04.34 | 271866 | 281199

Характеристики диапазона извлечения и сообщения об ошибках

Выбранный диапазон

Имя файла G:\ley-barmaley\музыкальные сказки на сайте lossless-galaxy.ru\Страна снеговиков (Звуковая книга, Диск №59).wav

Пиковый уровень 98.1 %

Скорость извлечения 5.1 X

Качество диапазона 100.0 %

CRC теста 96F734CE

CRC копии 96F734CE

Копирование... OK

Ошибок не произошло

AccurateRip: сводка

Трек 1 отсутствует в базе данных

Трек 2 отсутствует в базе данных

Трек 3 отсутствует в базе данных

Трек 4 отсутствует в базе данных

Трек 5 отсутствует в базе данных

Трек 6 отсутствует в базе данных

Трек 7 отсутствует в базе данных

Трек 8 отсутствует в базе данных

Трек 9 отсутствует в базе данных

Ни одного трека нет в базе AccurateRip

Конец отчёта

---- CUETools DB Plugin V2.1.3

[CTDB TOCID: DQ5YyHJ4apCTySbh5_G4VZCw_h4-] disk not present in database, Submit result: DQ5YyHJ4apCTySbh5_G4VZCw_h4- has been uploaded

==== Контрольная сумма отчёта F985D3FE2CA50483A6F91C33EA32BD6ECA3A75859CDFB86D7B1F1B453E512A25 ====

Dynamic Range Meter

foobar2000 1.1.15 / Dynamic Range Meter 1.1.1

log date: 2014-11-28 22:15:12

--------------------------------------------------------------------------------

Analyzed: Алексей Борзунов / Страна снеговиков (Звуковая книга, Диск №59) (1)

Галина Новожилова / Страна снеговиков (Звуковая книга, Диск №59) (2)

--------------------------------------------------------------------------------

DR Peak RMS Duration Track

--------------------------------------------------------------------------------

DR12 -0.17 dB -15.39 dB 8:50 05-Острова снеговиков (1988)

DR13 -0.18 dB -16.07 dB 8:53 06-Новогодние подарки (1988)

--------------------------------------------------------------------------------

Number of tracks: 2

Official DR value: DR13

Samplerate: 44100 Hz

Channels: 2

Bits per sample: 16

Bitrate: 730 kbps

Codec: WavPack

================================================================================

--------------------------------------------------------------------------------

Statistics for: 04-Новогодняя лесная сказка (1987)

Number of samples: 23720508

Duration: 8:58

--------------------------------------------------------------------------------

Left Right

Peak Value: -0.67 dB --- -0.17 dB

Avg RMS: -15.66 dB --- -15.25 dB

DR channel: 12.32 dB --- 12.31 dB

--------------------------------------------------------------------------------

Official DR Value: DR12

Samplerate: 44100 Hz

Channels: 2

Bits per sample: 16

Bitrate: 730 kbps

Codec: WavPack

================================================================================

--------------------------------------------------------------------------------

Analyzed: Зиновий Гердт и инструментальный ансамбль под управлением Леона Елецкого / Страна снеговиков (Звуковая книга, Диск №59)

--------------------------------------------------------------------------------

DR Peak RMS Duration Track

--------------------------------------------------------------------------------

DR14 -0.17 dB -17.02 dB 2:02 02-Песенка снеговика (1976)

DR14 -0.17 dB -17.12 dB 2:04 09-Песенка снеговика (1976)

--------------------------------------------------------------------------------

Number of tracks: 2

Official DR value: DR14

Samplerate: 44100 Hz

Channels: 2

Bits per sample: 16

Bitrate: 730 kbps

Codec: WavPack

================================================================================

--------------------------------------------------------------------------------

Analyzed: Николай Литвинов / Страна снеговиков (Звуковая книга, Диск №59) (1)

Сказочник - Николай Литвинов; Снеговик - Георгий Куликов; Снежная баба - Людмила Шапошникова; Снеговичок - Лидия Портнова; Белочка - Наталья Львова; Заяц и Ворона - Ирина Потоцкая; Дятел - Лев Шабарин. Автор - Миоаре Кремене. Автор инсценировки - Вера Вартанова. Автор музыки - Лидия Аустер. / Страна снеговиков (Звуковая книга, Диск №59) (2-3)

--------------------------------------------------------------------------------

DR Peak RMS Duration Track

--------------------------------------------------------------------------------

DR13 -0.18 dB -16.11 dB 8:28 03-Новогодняя сказка о снеговике (1983)

DR14 -0.18 dB -17.67 dB 11:43 07-Солнышко и снеговики (1963). Часть 1

DR12 -0.17 dB -15.75 dB 11:26 08-Солнышко и снеговики (1963). Часть 2

--------------------------------------------------------------------------------

Number of tracks: 3

Official DR value: DR13

Samplerate: 44100 Hz

Channels: 2

Bits per sample: 16

Bitrate: 730 kbps

Codec: WavPack

================================================================================

--------------------------------------------------------------------------------

Statistics for: 01-Пустой трек

Number of samples: 176400

Duration: 0:04

--------------------------------------------------------------------------------

Left Right

Peak Value: -1.#J dB --- -1.#J dB

Avg RMS: -1.#J dB --- -1.#J dB

DR channel: 0.00 dB --- 0.00 dB

--------------------------------------------------------------------------------

Official DR Value: DR0

Samplerate: 44100 Hz

Channels: 2

Bits per sample: 16

Bitrate: 730 kbps

Codec: WavPack

================================================================================

auCDtect

-----------------------

DON'T MODIFY THIS FILE

-----------------------

PERFORMER: auCDtect Task Manager, ver. 1.5.1RC3 build 1.5.1.4

Copyright (c) 2008-2010 y-soft. All rights reserved

http://y-soft.org

ANALYZER: auCDtect: CD records authenticity detector, version 0.8.2

Copyright (c) 2004 Oleg Berngardt. All rights reserved.

Copyright (c) 2004 Alexander Djourik. All rights reserved.

FILE: Страна снеговиков (Звуковая книга, Диск №59).wv

Size: 342095808 Hash: 9B0113FE885A703DF07F69BC31D880ED Accuracy: -m0

Conclusion: CDDA 100%

Signature: CA6D8A2DC1F8DF53DC49B401E8F1DD6C2100731B

FILE: Страна снеговиков (Звуковая книга, Диск №59).wav

Size: 661382444 Hash: 9B0113FE885A703DF07F69BC31D880ED Accuracy: -m0

Conclusion: CDDA 100%

Signature: 7D191875283273D5D0A8E382A539182CF1479A2F

CD & matrix

Другие аудиоспектакли

Скачать