Дитрих Александр: Как игрушки пошли учиться, или Петя Кляксин на необитаемом острове

Скачать

 Дитрих Александр: Как игрушки пошли учиться, или Петя Кляксин на необитаемом острове

Как игрушки пошли учиться, или Петя Кляксин на необитаемом острове

Год записи аудиоспектакля / издан на CD: 1964 / 2013

Автор: Александр Кириллович Дитрих

Исполнители: Ростислав Плятт, Маргарита Корабельникова, Анастасия Георгиевская, Евгений Весник, Борис Толмазов, Борис Левинсон

Жанр: Аудиоспектакль

Издательство, номер по каталогу: Студия "Звуковая книга", Диск №60

Аудиокодек: WavPack

Тип рипа: image+.cue

Битрейт: lossless

Время звучания: 0:45:20

Производитель диска: Россия

Источник: ley-barmaley / lossless-galaxy

Наличие сканов в содержимом раздачи: полное сканирование (JPG, 300dpi)

Собирается Петя первый раз в школу, а его комната неожиданно превращается в класс, в котором за партами сидят игрушки. Мальчик пытается провести урок, но вскоре обижает своих учеников. За это фея наказывает Петю и отправляет его на необитаемый остров...

От автора - Ростислав Плятт

Петя Кляксин - Маргарита Корабельникова

Фея - Анастасия Георгиевская

Ванькин-Встанькин - Евгений Весник

Солдатиков - Борис Толмазов

Профессор Пистолетов - Борис Левинсон

EAC log

Exact Audio Copy V1.0 beta 3 from 29. August 2011

Отчёт EAC об извлечении, выполненном 19. марта 2014, 19:10

Ростислав Плятт, Маргарита Корабельникова, Анастасия Георгиевская, Евгений Весник, Борис Толмазов, Борис Левинсон / Как игрушки пошли учиться (Звуковая книга, Диск №60)

Дисковод: ASUS DRW-1814BL Adapter: 0 ID: 0

Режим чтения : Достоверность

Использование точного потока : Да

Отключение кэша аудио : Да

Использование указателей C2 : Нет

Коррекция смещения при чтении : 6

Способность читать области Lead-in и Lead-out : Нет

Заполнение пропущенных сэмплов тишиной : Да

Удаление блоков с тишиной в начале и конце : Нет

При вычислениях CRC использовались нулевые сэмплы : Да

Интерфейс : Встроенный Win32-интерфейс для Win NT/2000

Выходной формат : Внутренние WAV-операции

Формат сэмплов : 44.100 Гц; 16 бит; стерео

TOC извлечённого CD

Трек | Старт | Длительность | Начальный сектор | Конечный сектор

---------------------------------------------------------------------

1 | 0:00.00 | 0:04.00 | 0 | 299

2 | 0:04.00 | 6:17.06 | 300 | 28580

3 | 6:21.06 | 6:09.10 | 28581 | 56265

4 | 12:30.16 | 5:58.10 | 56266 | 83125

5 | 18:28.26 | 6:14.02 | 83126 | 111177

6 | 24:42.28 | 6:18.28 | 111178 | 139555

7 | 31:00.56 | 6:22.72 | 139556 | 168277

8 | 37:23.53 | 7:56.20 | 168278 | 203997

Характеристики диапазона извлечения и сообщения об ошибках

Выбранный диапазон

Имя файла G:\ley-barmaley\музыкальные сказки на сайте lossless-galaxy.ru\Как игрушки пошли учиться (Звуковая книга, Диск №60).wav

Пиковый уровень 100.0 %

Скорость извлечения 4.2 X

Качество диапазона 100.0 %

CRC теста 6E3838B3

CRC копии 6E3838B3

Копирование... OK

Ошибок не произошло

AccurateRip: сводка

Трек 1 отсутствует в базе данных

Трек 2 отсутствует в базе данных

Трек 3 отсутствует в базе данных

Трек 4 отсутствует в базе данных

Трек 5 отсутствует в базе данных

Трек 6 отсутствует в базе данных

Трек 7 отсутствует в базе данных

Трек 8 отсутствует в базе данных

Ни одного трека нет в базе AccurateRip

Конец отчёта

---- CUETools DB Plugin V2.1.3

[CTDB TOCID: pI6NGqgT1qRN27Zr.kpL2J7sJc4-] disk not present in database, Submit result: pI6NGqgT1qRN27Zr.kpL2J7sJc4- has been uploaded

==== Контрольная сумма отчёта CFD8AD1E7BF68558CCC23BB4D818FA0D85C68FA883B489AE777C39EA6252398A ====

Dynamic Range Meter

foobar2000 1.1.15 / Dynamic Range Meter 1.1.1

log date: 2015-01-12 17:46:44

--------------------------------------------------------------------------------

Analyzed: --- / Как игрушки пошли учиться (Звуковая книга, Диск №60) (1)

От автора - Ростислав Плятт; Петя Кляксин - Маргарита Корабельникова; Фея - Анастасия Георгиевская; Ванькин-Встанькин - Евгений Весник; Солдатиков - Борис Толмазов; Профессор Пистолетов - Борис Левинсон / Как игрушки пошли учиться (Звуковая книга, Диск №60) (2-8)

--------------------------------------------------------------------------------

DR Peak RMS Duration Track

--------------------------------------------------------------------------------

DR0 -1.#J dB -1.#J dB 0:04 01-Пустой трек

DR12 -0.33 dB -15.51 dB 6:17 02-Как игрушки пошли учиться, или Петя Кляксин на необитаемом острове. Часть 1

DR12 -0.31 dB -15.83 dB 6:09 03-Как игрушки пошли учиться, или Петя Кляксин на необитаемом острове. Часть 2

DR12 -0.49 dB -15.57 dB 5:58 04-Как игрушки пошли учиться, или Петя Кляксин на необитаемом острове. Часть 3

DR12 0.00 dB -15.29 dB 6:14 05-Как игрушки пошли учиться, или Петя Кляксин на необитаемом острове. Часть 4

DR13 -0.27 dB -15.61 dB 6:18 06-Как игрушки пошли учиться, или Петя Кляксин на необитаемом острове. Часть 5

DR12 -0.17 dB -15.61 dB 6:23 07-Как игрушки пошли учиться, или Петя Кляксин на необитаемом острове. Часть 6

DR12 -0.19 dB -16.38 dB 7:56 08-Как игрушки пошли учиться, или Петя Кляксин на необитаемом острове. Часть 7

--------------------------------------------------------------------------------

Number of tracks: 8

Official DR value: DR11

Samplerate: 44100 Hz

Channels: 2

Bits per sample: 16

Bitrate: 731 kbps

Codec: WavPack

================================================================================

auCDtect

-----------------------

DON'T MODIFY THIS FILE

-----------------------

PERFORMER: auCDtect Task Manager, ver. 1.5.1RC3 build 1.5.1.4

Copyright (c) 2008-2010 y-soft. All rights reserved

http://y-soft.org

ANALYZER: auCDtect: CD records authenticity detector, version 0.8.2

Copyright (c) 2004 Oleg Berngardt. All rights reserved.

Copyright (c) 2004 Alexander Djourik. All rights reserved.

FILE: Как игрушки пошли учиться (Звуковая книга, Диск №60).wv

Size: 248418698 Hash: C4FB7DCFDC9E3EBB6BF88A203ED68798 Accuracy: -m0

Conclusion: CDDA 100%

Signature: 84BB2A2762A0B9625201861526B0A8DD86C7436E

FILE: Как игрушки пошли учиться (Звуковая книга, Диск №60).wav

Size: 479803340 Hash: C4FB7DCFDC9E3EBB6BF88A203ED68798 Accuracy: -m0

Conclusion: CDDA 100%

Signature: 3DB50E38672FACD7416070936CBBF39B4D06EB16

CD & matrix

Другие аудиоспектакли

Скачать